How to Burn a .bin and .cue File With Nero

This article teaches how to burn a Bin & Cue file with Nero.

Steps

  1. Image titled Burn a .bin and .cue File With Nero Step 1
    1
    Check that your .cue file is correctly "configured". Open your .cue file with a text-editor (such as Notepad). When opened, it should look something like this: FILE "CD2.BIN" BINARY TRACK 01 MODE2/2352 INDEX 01 00:00:00 TRACK 02 MODE2/2352 INDEX 01 00:06:12
  2. Image titled Burn a .bin and .cue File With Nero Step 2
    2
    Where it SAYS "CD2.BIN" add the full path before it, for example, if your bin and cue files were in the folder located at D:\MOVIES then FILE "CD2.BIN" BINARY would be changed to FILE "D:\MOVIES\CD2.BIN" BINARY. For example the file above should now look like this: FILE "D:\MOVIES\CD2.BIN" BINARY TRACK 01 MODE2/2352 INDEX 01 00:00:00 TRACK 02 MODE2/2352 INDEX 01 00:06:12
  3. Image titled Burn a .bin and .cue File With Nero Step 3
    3
    Save the .cue file to the same folder and close the cue file.
  4. Image titled Burn a .bin and .cue File With Nero Step 4
    4
    Launch Nero.
  5. Image titled Burn a .bin and .cue File With Nero Step 5
    5
    Close the Wizard.
  6. Image titled Burn a .bin and .cue File With Nero Step 6
    6
    Select Recorder, then click Burn Image.
  7. Image titled Burn a .bin and .cue File With Nero Step 7
    7
    Change to All files under File Types and open the .cue file that comes with the bin file.
  8. Image titled Burn a .bin and .cue File With Nero Step 8
    8
    Be sure to select Disc-At-Once, otherwise Nero will burn the image wrong!
  9. Image titled Burn a .bin and .cue File With Nero Step 9
    9
    Select the write speed and finally click Write.

Tips

  • how to create a bin file in Nero software
  • Don't forget to add the "\" after the path but before "CD2.BIN" when editing the .cue file.

Warnings

  • Make sure the movie or program you are burning isn't an illegal copy.

Things You'll Need

  • A folder with .bin and .cue files.
  • Nero

Article Info

Categories: File Manipulation